<?xml version="1.0" standalone="no"?>
<!DOCTYPE svg PUBLIC "-//W3C//DTD SVG 1.1//EN" "http://www.w3.org/Graphics/SVG/1.1/DTD/svg11.dtd" >
<svg xmlns="http://www.w3.org/2000/svg">
<metadata>Generated by IcoMoon</metadata>
<defs>
<font id="zm" horiz-adv-x="1024">
<font-face units-per-em="1024" ascent="960" descent="-64" />
<missing-glyph horiz-adv-x="1024" />
<glyph unicode="&#x20;" d="" horiz-adv-x="512" />
<glyph unicode="&#xe600;" d="M512 832v-179.2h358.4v-409.6h-358.4v-179.2l-384 384 384 384z" />
<glyph unicode="&#xe601;" d="M768 447.949c0-15.309-15.616-26.317-15.616-26.317l-438.323-271.514c-31.949-20.941-58.061-5.427-58.061 34.253v527.206c0 39.782 26.112 55.194 58.112 34.304l438.323-271.616c-0.051 0 15.565-11.008 15.565-26.317z" />
<glyph unicode="&#xe602;" d="M768 806.4h-102.4c-28.314 0-51.2-2.458-51.2-30.72v-655.36c0-28.262 22.886-30.72 51.2-30.72h102.4c28.314 0 51.2 2.458 51.2 30.72v655.36c0 28.262-22.886 30.72-51.2 30.72zM358.4 806.4h-102.4c-28.314 0-51.2-2.458-51.2-30.72v-655.36c0-28.262 22.886-30.72 51.2-30.72h102.4c28.314 0 51.2 2.458 51.2 30.72v655.36c0 28.262-22.886 30.72-51.2 30.72z" />
<glyph unicode="&#xe603;" d="M896 448l-384-384v179.2h-358.4v409.6h358.4v179.2l384-384z" />
<glyph unicode="&#xe604;" d="M357.734 397.466l-150.067-155.187-105.267 124.365v-328.243h327.014l-124.416 106.547 155.136 150.118-102.4 102.4zM594.586 857.6l124.416-106.547-155.136-150.118 102.4-102.4 150.067 155.187 105.267-124.365v328.243h-327.014z" />
<glyph unicode="&#xe605;" d="M209.92 238.080l-158.72-148.48 102.4-102.4 148.48 158.72 107.52-107.52v307.2h-307.2l107.52-107.52zM972.8 806.4l-102.4 102.4-148.48-158.72-107.52 107.52v-307.2h307.2l-107.52 107.52 158.72 148.48z" />
<glyph unicode="&#xe606;" d="M734.618 199.731c-24.013-24.013-62.925-24.013-86.886 0l-135.731 155.136-135.731-155.085c-24.013-24.013-62.925-24.013-86.886 0-24.013 24.013-24.013 62.925 0 86.886l141.21 161.28-141.261 161.382c-24.013 24.013-24.013 62.874 0 86.886s62.874 24.013 86.886 0l135.782-155.187 135.731 155.187c24.013 24.013 62.874 24.013 86.886 0s24.013-62.925 0-86.886l-141.21-161.382 141.21-161.28c24.013-24.013 24.013-62.925 0-86.938z" />
<glyph unicode="&#xe607;" d="M792.781 322.458c-22.323-22.835-53.402-24.627-80.691 0l-200.090 191.846-200.090-191.846c-27.29-24.627-58.419-22.835-80.589 0-22.323 22.784-20.89 61.286 0 82.688 20.787 21.402 240.384 230.502 240.384 230.502 11.11 11.418 25.702 17.152 40.294 17.152s29.184-5.734 40.397-17.152c0 0 219.494-209.101 240.384-230.502 20.941-21.402 22.323-59.904 0-82.688z" />
<glyph unicode="&#xe608;" d="M231.219 573.542c22.323 22.835 53.402 24.627 80.691 0l200.090-191.846 200.090 191.846c27.29 24.627 58.419 22.835 80.589 0 22.323-22.784 20.89-61.286 0-82.688-20.787-21.402-240.384-230.502-240.384-230.502-11.11-11.418-25.702-17.152-40.294-17.152s-29.184 5.734-40.397 17.152c0 0-219.494 209.101-240.384 230.502-20.941 21.402-22.323 59.904 0 82.688z" />
<glyph unicode="&#xe609;" d="M698.778 583.066c-6.81 18.176 181.197 186.061 71.578 322.099-25.651 31.795-112.691-152.32-236.288-235.674-68.198-45.978-226.867-143.872-226.867-197.99v-350.31c0-65.075 251.597-133.99 442.778-133.99 70.093 0 171.622 439.091 171.622 508.826 0 70.042-216.115 68.813-222.822 87.040zM256 578.202c-33.69 0-153.6-20.48-153.6-159.898v-248.218c0-139.315 119.91-154.675 153.6-154.675 33.638 0-51.2 29.286-51.2 115.712v326.298c0 90.522 84.838 120.781 51.2 120.781z" />
<glyph unicode="&#xe60a;" d="M187.665 857.601h648.671c46.896 0 85.266-38.369 85.266-85.266v-648.671c0-46.896-38.369-85.266-85.266-85.266h-648.671c-46.896 0-85.266 38.369-85.266 85.266v648.671c0 46.896 38.369 85.266 85.266 85.266zM813.665 526.686c-13.268 17.746-208.988 39.994-208.988 39.994s-62.68 169.594-92.236 162.717c-29.538-6.875-87.588-173.377-87.588-173.377s-207.045-9.972-214.931-38.699c-7.832-28.738 133.206-142.921 133.206-142.921s-52.51-185.546-14.285-204.639c23.506-11.732 175.709 102.523 175.709 102.523s157.77-122.069 195.247-104.073c14.064 6.748-10.147 92.826-28.591 151.604-77.168-2.341-214.401-3.654-300.576 12.001 2.588 12.523 195.889 144.297 195.889 144.297l-204.715 28.896c0 0 124.993 29.515 294.069 0 3.851-7.751-187.023-140.767-184.573-151.573 68.637-12.743 145.78-21.337 197.577-26.243-8.695 27.369-15.581 47.207-15.581 47.207s173.666 134.568 160.367 152.286z" />
<glyph unicode="&#xe60b;" d="M187.665 857.601h648.671c46.896 0 85.266-38.369 85.266-85.266v-648.671c0-46.896-38.369-85.266-85.266-85.266h-648.671c-46.896 0-85.266 38.369-85.266 85.266v648.671c0 46.896 38.369 85.266 85.266 85.266zM670.766 457.5c-8.9 2.672-15.004 4.485-10.337 16.18 10.092 25.389 11.14 47.296 0.19 62.919-20.518 29.319-76.656 27.732-141.003 0.791 0 0.035-20.204-8.84-15.042 7.188 9.901 31.817 8.409 58.475-6.995 73.859-34.914 34.936-127.751-1.318-207.359-80.906-59.62-59.633-94.239-122.822-94.239-177.465 0-104.52 134.032-168.067 265.155-168.067 171.896 0 286.239 99.873 286.239 179.165 0 47.907-40.353 75.094-76.61 86.335zM461.488 229.462v0c-104.63-10.326-194.95 36.971-201.747 105.67-6.797 68.682 72.542 132.742 177.162 143.088 104.642 10.346 194.967-36.951 201.749-105.62 6.786-68.72-72.518-132.787-177.164-143.139zM784.916 648.776c-41.512 46.024-102.742 63.568-159.256 51.552h-0.023c-13.079-2.799-21.415-15.665-18.615-28.718 2.788-13.064 15.648-21.413 28.727-18.624 40.205 8.538 83.717-3.951 113.225-36.644 29.483-32.691 37.492-77.282 24.864-116.371l0.007-0.008c-4.116-12.733 2.85-26.354 15.598-30.47 12.696-4.112 26.348 2.844 30.468 15.547 0 0.024 0 0.072 0.007 0.093 17.717 54.985 6.524 117.664-35.001 163.643zM721.168 591.247c-20.202 22.415-50.036 30.928-77.575 25.073-11.255-2.398-18.428-13.476-16.014-24.742 2.406-11.218 13.476-18.425 24.704-15.982v-0.024c13.462 2.847 28.059-1.304 37.936-12.241 9.887-10.959 12.544-25.892 8.302-38.996h0.022c-3.527-10.936 2.459-22.695 13.405-26.24 10.949-3.504 22.695 2.464 26.228 13.429 8.654 26.781 3.24 57.312-17.007 79.722zM471.944 425.352c-49.789 12.953-106.065-11.86-127.692-55.73-22.025-44.745-0.728-94.413 49.577-110.65 52.105-16.804 113.524 8.946 134.876 57.244 21.061 47.211-5.234 95.82-56.761 109.137zM433.925 311.087v0c-10.121-16.147-31.793-23.222-48.115-15.77-16.089 7.327-20.838 26.078-10.716 41.823 9.997 15.678 30.941 22.662 47.143 15.869 16.392-6.986 21.626-25.617 11.688-41.923zM467.265 353.876v0c-3.659-6.253-11.749-9.265-18.087-6.657-6.232 2.565-8.185 9.564-4.644 15.711 3.646 6.116 11.42 9.103 17.636 6.636 6.317-2.311 8.588-9.388 5.095-15.69z" />
<glyph unicode="&#xe60c;" d="M187.665 857.601h648.671c46.896 0 85.266-38.369 85.266-85.266v-648.671c0-46.896-38.369-85.266-85.266-85.266h-648.671c-46.896 0-85.266 38.369-85.266 85.266v648.671c0 46.896 38.369 85.266 85.266 85.266zM582.988 655.626c-23.924-45.308-6.326-101.521 39.229-125.32 16.291-8.507 33.984-11.711 51.094-10.275 8.535 3.579 6.771 8.979 4.378 12.412h-0.005c-2.997 2.538-6.221 2.857-7.816 2.849-0.328-0.021-0.669-0.045-1.003-0.060h-0.021l-0.005 0.005c-13.256-0.581-26.821 2.202-39.4 8.762-37.954 19.83-52.619 66.675-32.684 104.435 19.938 37.751 67.044 52.335 105.006 32.5 37.957-19.822 52.618-66.667 32.685-104.424-2.574-4.875-5.638-9.318-9.047-13.392l0.012-0.016c0 0-2.64-3.387-3.233-6.116-0.057-0.37-0.095-0.761-0.122-1.16-0.004-0.015-0.004-0.030-0.004-0.045 0 0-0.003-0.015 0-0.015-0.22-3.694 0.955-8.299 8.12-8.277 0 0 3.842 1.926 4.488 2.646 5.212 5.67 9.797 12.066 13.553 19.184 23.922 45.297 6.328 101.517-39.223 125.315-45.549 23.797-102.078 6.289-126.003-39.008zM384.78 573.123c-32.508 0-58.858-26.205-58.858-58.531 0-7.477 1.461-14.604 4.026-21.175-13.038-14.229-24.713-29.724-35.043-44.953-58.025-85.483-75.019-192.019-69.366-293.271 0.975-17.458 28.356-17.552 27.373 0-5.383 96.512 10.231 194.706 63.869 276.891 8.424 12.907 18.359 26.213 29.251 38.516 10.36-9.033 23.89-14.547 38.747-14.547 32.504 0 58.854 26.208 58.854 58.54 0 32.326-26.35 58.531-58.854 58.531zM377.020 687.026c-96.611 0-175.206-78.174-175.206-174.255 0-34.374 10.095-66.425 27.442-93.451 13.438-10.981 20.914-3.344 24.57 3.608h-0.012c1.626 7.177-0.646 12.784-2.068 15.402-0.325 0.539-0.655 1.074-0.972 1.614-0.004 0.006-0.021 0.031-0.021 0.031v0.011c-12.536 21.409-19.738 46.269-19.738 72.785 0 80.071 65.496 145.213 146.004 145.213 80.511 0 146.007-65.142 146.007-145.213 0-80.067-65.496-145.21-146.007-145.21-10.391 0-20.495 1.185-30.268 3.269-0.009-0.005-0.027-0.030-0.027-0.030s-7.964 1.4-13.055 0.004c-0.662-0.235-1.344-0.506-2.034-0.814-0.022-0.011-0.055-0.021-0.075-0.036-0.012-0.010-0.031-0.010-0.040-0.020-6.348-2.852-13.014-8.81-6.736-20.634 0.009-0.010 6.579-4.672 8.334-5.131 14.037-3.643 28.731-5.645 43.901-5.645 96.61 0 175.205 78.165 175.205 174.248 0 96.081-78.594 174.255-175.205 174.255zM638.913 631.052c-8.051-15.249-2.156-34.093 13.169-42.094 3.548-1.852 7.285-2.929 11.036-3.365 3.522-9.634 7.982-18.942 12.632-27.56 26.164-48.376 72.463-82.729 121.871-105.152 8.512-3.867 15.339 8.95 6.773 12.833-47.091 21.382-89.776 53.020-115.454 98.519-4.032 7.153-7.883 15.104-11.013 23.257 6.84 2.622 12.807 7.598 16.487 14.563 8.050 15.251 2.147 34.099-13.179 42.106-15.325 7.997-34.278 2.133-42.323-13.108z" />
<glyph unicode="&#xe60d;" d="M187.665 857.601h648.671c46.896 0 85.266-38.369 85.266-85.266v-648.671c0-46.896-38.369-85.266-85.266-85.266h-648.671c-46.896 0-85.266 38.369-85.266 85.266v648.671c0 46.896 38.369 85.266 85.266 85.266zM343.75 513.014v114.186c-85.256-14.322-150.241-88.509-150.241-177.934 0-44.446 16.080-85.111 42.693-116.553 63.118 30.586 107.235 99.765 107.548 180.301zM373.804 403.7c-11.225-46.534-44.772-86.331-86.566-112.764 25.692-14.1 55.181-22.136 86.547-22.136 31.379 0 60.873 8.036 86.571 22.149-41.791 26.433-75.329 66.217-86.552 112.751zM511.363 332.739c0.008-0.007 0.013-0.021 0.019-0.027 63.118 30.586 108.484 99.765 108.794 180.301v114.186c-42.879-7.203-81.865-29.557-108.8-61.368-26.928 31.806-64.661 54.157-107.532 61.362v-113.329h0.008c0-80.88 44.193-150.422 107.511-181.127zM680.27 513.866h0.008c0-80.888 44.202-150.435 107.527-181.14 26.612 31.442 42.686 72.107 42.686 116.54 0 89.419-64.975 163.599-150.22 177.929v-113.329zM650.226 403.7c-11.219-46.534-44.768-86.331-86.567-112.764 25.694-14.1 55.183-22.136 86.552-22.136 31.374 0 60.869 8.036 86.571 22.149-41.79 26.433-75.329 66.217-86.556 112.751z" />
<glyph unicode="&#xe60e;" d="M921.602 126.077c0-48.422-39.26-87.677-87.669-87.677h-643.845c-48.426 0-87.689 39.256-87.689 87.677v643.863c0 48.406 39.264 87.662 87.689 87.662h643.845c48.409 0 87.669-39.256 87.669-87.662v-643.863zM615.472 542.039c6.699 0 13.335-0.49 19.92-1.214-17.897 83.361-107.033 145.305-208.781 145.305-113.748 0-206.907-77.532-206.907-175.996 0-56.809 30.979-103.483 82.785-139.692l-20.683-62.244 72.322 36.264c25.893-5.107 46.659-10.363 72.484-10.363 6.494 0 12.941 0.312 19.328 0.818-4.051 13.833-6.387 28.323-6.387 43.355 0 90.4 77.603 163.766 175.92 163.766zM504.202 598.14v0c15.584 0 25.885-10.241 25.885-25.818 0-15.509-10.3-25.912-25.885-25.912-15.506 0-31.059 10.403-31.059 25.912 0 15.577 15.553 25.818 31.059 25.818zM359.391 546.41v0c-15.517 0-31.162 10.403-31.162 25.912 0 15.577 15.644 25.818 31.162 25.818s25.821-10.241 25.821-25.818c0-15.509-10.304-25.912-25.821-25.912zM804.312 380.751c0 82.733-82.772 150.178-175.754 150.178-98.472 0-176.004-67.445-176.004-150.178 0-82.856 77.532-150.139 176.004-150.139 20.592 0 41.378 5.178 62.085 10.364l56.765-31.087-15.569 51.73c41.525 31.154 72.472 72.481 72.472 119.132zM571.504 406.651v0c-10.308 0-20.691 10.237-20.691 20.707 0 10.296 10.383 20.687 20.691 20.687 15.644 0 25.885-10.391 25.885-20.687 0-10.47-10.241-20.707-25.885-20.707zM685.323 406.651v0c-10.237 0-20.565 10.237-20.565 20.707 0 10.296 10.328 20.687 20.565 20.687 15.498 0 25.889-10.391 25.889-20.687 0-10.47-10.391-20.707-25.889-20.707z" />
<glyph unicode="&#xe60f;" d="M187.665 857.601c-46.896 0-85.266-38.369-85.266-85.266v-648.671c0-46.896 38.369-85.266 85.266-85.266h648.671c46.896 0 85.266 38.369 85.266 85.266v648.671c0 46.896-38.369 85.266-85.266 85.266h-648.671zM460.794 652.801h102.401v-153.6h153.606v-102.401h-153.606v-153.6h-102.401v153.6h-153.594v102.401h153.594v153.6z" />
<glyph unicode="&#xe610;" d="M819.2 755.2h-614.4c-56.371 0-102.4-46.080-102.4-102.4v-358.4c0-56.32 46.029-102.4 102.4-102.4h204.8l204.8-153.6v153.6h204.8c56.32 0 102.4 46.080 102.4 102.4v358.4c0 56.32-46.080 102.4-102.4 102.4zM307.2 417.28c-31.078 0-56.32 25.19-56.32 56.32s25.19 56.32 56.32 56.32 56.32-25.19 56.32-56.32c0-31.078-25.242-56.32-56.32-56.32zM512 417.28c-31.078 0-56.32 25.19-56.32 56.32s25.19 56.32 56.32 56.32 56.32-25.19 56.32-56.32c0-31.078-25.242-56.32-56.32-56.32zM716.8 417.28c-31.078 0-56.32 25.19-56.32 56.32s25.19 56.32 56.32 56.32 56.32-25.19 56.32-56.32c0-31.078-25.242-56.32-56.32-56.32z" />
<glyph unicode="&#xe611;" d="M768 271.77c-32.41 0-61.645-12.595-83.814-32.87l-304.026 177.306c2.355 9.626 3.84 19.661 3.84 29.901s-1.485 20.224-3.84 29.85l300.8 175.565c22.835-21.35 53.35-34.56 87.040-34.56 70.605 0 128 57.395 128 128s-57.395 128-128 128-128-57.395-128-128c0-10.24 1.485-20.275 3.84-29.85l-300.8-175.565c-22.835 21.299-53.35 34.56-87.040 34.56-70.605 0-128-57.395-128-128s57.395-128 128-128c33.69 0 64.205 13.21 87.040 34.56l304.026-177.306c-2.15-8.96-3.43-18.33-3.43-27.955 0-68.71 55.654-124.365 124.365-124.365s124.365 55.706 124.365 124.365-55.654 124.365-124.365 124.365z" />
<glyph unicode="&#xe612;" d="M469.146 728.781c21.402-20.89 230.502-240.384 230.502-240.384 11.418-11.213 17.152-25.805 17.152-40.397s-5.734-29.184-17.152-40.294c0 0-209.101-219.597-230.502-240.384-21.402-20.89-59.904-22.323-82.688 0-22.835 22.221-24.627 53.299 0 80.589l191.846 200.090-191.846 200.090c-24.627 27.29-22.835 58.419 0 80.691 22.784 22.323 61.286 20.941 82.688 0z" />
<glyph unicode="&#xe613;" d="M36.67 960h366.696c20.171 0 36.67-16.498 36.67-36.67v-366.696c0-20.171-16.498-36.67-36.67-36.67h-366.696c-20.168 0-36.67 16.498-36.67 36.67v366.696c0 20.171 16.501 36.67 36.67 36.67v0zM621.548 376.036h366.7c20.168 0 36.67-16.501 36.67-36.67v-366.696c0-20.171-16.501-36.67-36.67-36.67h-366.7c-20.168 0-36.667 16.498-36.667 36.67v366.696c0 20.168 16.501 36.67 36.667 36.67v0zM36.67 376.494h366.696c20.171 0 36.67-16.498 36.67-36.67v-366.693c0-20.171-16.498-36.67-36.67-36.67h-366.696c-20.168 0-36.67 16.498-36.67 36.67v366.693c0 20.168 16.501 36.67 36.67 36.67v0zM621.548 960h366.7c20.168 0 36.67-16.498 36.67-36.67v-366.696c0-20.171-16.501-36.67-36.67-36.67h-366.7c-20.168 0-36.667 16.498-36.667 36.67v366.696c0 20.171 16.501 36.67 36.667 36.67z" horiz-adv-x="1025" />
<glyph unicode="&#xe614;" d="M960 512c-35.376 0-64-28.656-64-64v-384h-768v384c0 35.344-28.624 64-64 64s-64-28.656-64-64v-448c0-35.344 28.624-64 64-64h896c35.376 0 64 28.656 64 64v448c0 35.344-28.624 64-64 64zM576 512v391.818c0 31.026-28.624 56.182-64 56.182s-64-25.156-64-56.182v-391.818h-192l256-256 256 256h-192z" />
<glyph unicode="&#xe615;" d="M187.061 857.601c-46.564 0-84.662-38.098-84.662-84.662v-649.88c0-46.564 38.098-84.662 84.662-84.662h649.88c46.564 0 84.662 38.098 84.662 84.662v649.88c0 46.564-38.098 84.662-84.662 84.662h-649.88zM293.248 513.885c157.201 0 284.637-127.436 284.637-284.637h-94.879c0 104.801-84.957 189.758-189.758 189.758-1.226 0-2.448-0.022-3.669-0.047v94.879c1.223 0.015 2.442 0.047 3.669 0.047zM321.712 323.066c36.094 0 65.355-29.261 65.355-65.355s-29.261-65.355-65.355-65.355c-36.094 0-65.355 29.261-65.355 65.355s29.261 65.355 65.355 65.355zM293.248 703.643c262.001 0 474.395-212.394 474.395-474.395h-94.879c0 209.601-169.915 379.516-379.516 379.516-1.226 0-2.445-0.035-3.669-0.047v94.879c1.224 0.010 2.442 0.047 3.669 0.047z" />
</font>
</defs>
</svg>
